<?xml version="1.0" standalone="no"?>
<!DOCTYPE svg PUBLIC "-//W3C//DTD SVG 1.1//EN" "http://www.w3.org/Graphics/SVG/1.1/DTD/svg11.dtd" >
<svg xmlns="http://www.w3.org/2000/svg">
<metadata>Generated by IcoMoon</metadata>
<defs>
<font id="tenweb" horiz-adv-x="1024">
<font-face units-per-em="1024" ascent="960" descent="-64" />
<missing-glyph horiz-adv-x="1024" />
<glyph unicode="&#x20;" horiz-adv-x="512" d="" />
<glyph unicode="&#xe900;" glyph-name="pinterest-square" d="M853.333-64h-682.667c-94.506 1.152-170.674 78.032-170.674 172.703 0 0.57 0.003 1.139 0.008 1.708l-0.001-0.087v675.352c-0.005 0.482-0.008 1.051-0.008 1.621 0 94.67 76.168 171.55 170.565 172.702l0.109 0.001h682.667c94.506-1.152 170.674-78.032 170.674-172.703 0-0.57-0.003-1.139-0.008-1.708l0.001 0.087v-675.352c0.005-0.482 0.008-1.051 0.008-1.621 0-94.67-76.168-171.55-170.565-172.702l-0.109-0.001zM462.019 661.577c-41.545 0-74.021-44.568-74.021-101.474-0.006-0.517-0.010-1.127-0.010-1.739 0-21.792 4.505-42.531 12.635-61.338l-0.386 1.003-11.459-49.396c-12.971-56.271-33.061-143.214-38.181-164.279-4.442-23.301-6.983-50.102-6.983-77.496 0-24.671 2.061-48.861 6.019-72.406l-0.353 2.544v-1.56c0.279-2.452 2.343-4.34 4.847-4.34 0.010 0 0.021 0 0.031 0h-0.002c0 0 0 0 0 0 1.684 0 3.181 0.798 4.135 2.036l0.009 0.012 1.122 1.414c28.919 36.047 52.15 78.166 67.438 123.922l0.828 2.859c4.876 17.31 26.77 106.886 27.014 107.764 19.823-29.585 53.123-48.799 90.911-48.799 1.005 0 2.007 0.014 3.006 0.041l-0.147-0.003c121.905 0 207.141 110.494 207.141 268.727-2.474 65.097-30.892 123.106-75.147 164.344l-0.141 0.13c-40.316 37.536-94.566 60.574-154.197 60.574-4.748 0-9.461-0.146-14.136-0.434l0.641 0.032c-171.837 0-274.334-124.538-274.334-244.98-0.567-4.924-0.891-10.631-0.891-16.413 0-57.314 31.795-107.202 78.709-132.988l0.786-0.396c1.938-0.865 4.196-1.382 6.571-1.414h0.012c6.448 0.153 11.734 4.935 12.669 11.143l0.009 0.072c0.829 3.072 2.048 8.29 3.413 13.751 1.658 6.827 3.413 13.8 4.389 17.749 0.848 2.089 1.34 4.511 1.34 7.049 0 5.911-2.67 11.199-6.869 14.723l-0.030 0.024c-15.574 19.511-24.99 44.534-24.99 71.756 0 1.86 0.044 3.709 0.131 5.547l-0.010-0.26c-0.006 0.573-0.010 1.249-0.010 1.926 0 49.919 19.313 95.327 50.874 129.16l-0.103-0.112c33.685 35.048 80.958 56.822 133.317 56.822 1.697 0 3.388-0.023 5.074-0.068l-0.249 0.005c4.665 0.543 10.069 0.852 15.546 0.852 37.904 0 72.345-14.826 97.84-38.995l-0.064 0.060c28.652-27.173 46.479-65.517 46.479-108.024 0-1.452-0.021-2.898-0.062-4.34l0.005 0.212c0-118.882-52.517-208.506-121.905-208.506-0.344-0.007-0.75-0.011-1.156-0.011-19.798 0-37.45 9.189-48.923 23.535l-0.096 0.125c-7.711 10.079-12.356 22.86-12.356 36.726 0 5.386 0.701 10.608 2.016 15.581l-0.095-0.424c4.145 17.944 9.752 36.425 15.165 54.321 9.302 24.823 15.938 53.621 18.631 83.555l0.094 1.291c0.237 1.889 0.373 4.074 0.373 6.291 0 13.475-5.001 25.783-13.248 35.167l0.051-0.060c-9.39 10.725-23.109 17.46-38.4 17.46-0.214 0-0.428-0.001-0.642-0.004h0.032z" />
<glyph unicode="&#xe901;" glyph-name="play" d="M190.513 928.987c7.091 4.169 15.619 6.632 24.722 6.632s17.632-2.463 24.955-6.758l-0.233 0.126 589.141-428.081c14.879-8.697 24.716-24.594 24.716-42.789s-9.837-34.091-24.483-42.662l-0.234-0.126-589.141-428.081c-7.092-4.165-15.62-6.624-24.722-6.624-27.305 0-49.44 22.133-49.445 49.437v0 856.113c0.003 18.202 9.841 34.106 24.489 42.687l0.233 0.126z" />
<glyph unicode="&#xe902;" glyph-name="refresh" d="M934.619 369.981c-9.164 14.726-25.262 24.382-43.614 24.382-0.095 0-0.191 0-0.286-0.001h0.015c-2.618 0.371-5.641 0.583-8.714 0.583-32.168 0-58.91-23.228-64.37-53.826l-0.059-0.396c-24.056-142.706-145.282-250.522-292.255-253.557l-0.316-0.005h-4.876c-166.815 0.453-301.869 135.787-301.869 302.664 0 160.014 124.174 291.026 281.417 301.931l0.947 0.053v-97.524c-0.087-0.663-0.137-1.429-0.137-2.207 0-4.827 1.911-9.208 5.018-12.427l-0.005 0.005c4.876-14.629 24.381-14.629 34.133-9.752l214.552 160.914c4.876 0 4.876 4.876 9.752 9.752 4.876 14.629 4.876 29.257-9.752 34.133l-214.552 165.79c0 4.876-4.876 4.876-9.752 4.876-0.628 0.051-1.36 0.081-2.099 0.081-14.079 0-25.669-10.655-27.147-24.341l-0.011-0.121v-97.524c-216.127-6.907-391.569-172.24-414.31-383.32l-0.166-1.899c-1.993-15.616-3.131-33.682-3.131-52.015 0-221.815 166.544-404.731 381.407-430.526l2.066-0.202c14.629 0 34.133-4.876 48.762-4.876 215.652 0.135 394.577 157.206 428.758 363.181l0.347 2.533c1.371 4.942 2.159 10.616 2.159 16.475 0 13.944-4.464 26.845-12.041 37.352l0.13-0.189z" />
<glyph unicode="&#xe903;" glyph-name="search" d="M971.776 43.471v0l-229.181 238.933c55.081 68.606 88.402 156.733 88.402 252.643 0 123.082-54.876 233.348-141.497 307.664l-0.543 0.455c-69.546 57.518-159.64 92.409-257.884 92.409-122.797 0-232.861-54.51-307.317-140.653l-0.437-0.517c-58.497-69.347-94.048-159.711-94.048-258.378 0-122.973 55.224-233.047 142.225-306.777l0.585-0.483c70.103-56.823 160.111-91.588 258.204-92.646l0.234-0.002c83.582 0.912 161.063 26.265 225.849 69.23l-1.544-0.963 229.181-238.933c9.827-10.813 23.459-18.017 38.766-19.486l0.244-0.019h4.876c0.442-0.013 0.961-0.020 1.482-0.020 14.496 0 27.692 5.568 37.565 14.683l-0.038-0.034c10.813 9.827 18.017 23.459 19.486 38.766l0.019 0.244c0.933 3.29 1.47 7.070 1.47 10.974 0 13.337-6.263 25.212-16.008 32.843l-0.091 0.069zM430.519 253.147c-156.197 0-282.819 126.622-282.819 282.819s126.622 282.819 282.819 282.819c156.197 0 282.819-126.622 282.819-282.819v0c0-156.197-126.622-282.819-282.819-282.819v0z" />
<glyph unicode="&#xe904;" glyph-name="arrow-right" horiz-adv-x="1550" d="M1545.967 412.193c-0.2 0.888-0.314 1.907-0.314 2.953s0.115 2.066 0.332 3.046l-0.017-0.093c0.521 4.541 0.819 9.803 0.819 15.135s-0.297 10.594-0.877 15.771l0.058-0.636c0.521 4.431 0.818 9.563 0.818 14.766s-0.297 10.335-0.876 15.382l0.057-0.617c-0.158 0.888-0.248 1.91-0.248 2.953s0.090 2.065 0.263 3.059l-0.015-0.106c-2.399 8.922-4.92 16.292-7.854 23.448l0.472-1.299c-7.938 18.332-18.637 33.999-31.76 47.264l0.013-0.013-362.497 363.236c-27.142 27.051-64.59 43.775-105.944 43.775-82.892 0-150.088-67.197-150.088-150.088 0-41.537 16.874-79.134 44.14-106.309l105.579-105.579h-890.371c-83.587 0-151.348-67.761-151.348-151.348s67.761-151.348 151.348-151.348v0h885.941l-101.145-103.36c-27.113-27.113-43.883-64.57-43.883-105.944 0-82.747 67.080-149.827 149.827-149.827 41.374 0 78.83 16.77 105.944 43.883v0l362.497 361.759c13.109 13.251 23.809 28.918 31.366 46.269l0.381 0.981c2.953 8.121 5.168 15.504 7.383 22.887z" />
<glyph unicode="&#xe905;" glyph-name="arrow-left" horiz-adv-x="1550" d="M1402.74 598.241h-885.941l101.145 105.575c27.271 27.179 44.145 64.775 44.145 106.313 0 82.892-67.197 150.088-150.088 150.088-41.354 0-78.802-16.725-105.948-43.78l-362.493-362.493c-13.109-13.251-23.809-28.918-31.366-46.269l-0.381-0.981c0-8.121-5.168-15.504-7.383-22.887 0.2-0.888 0.314-1.907 0.314-2.953s-0.115-2.066-0.332-3.046l0.017 0.093c-0.521-4.431-0.818-9.563-0.818-14.766s0.297-10.335 0.876-15.382l-0.057 0.617c-0.521-4.541-0.819-9.803-0.819-15.135s0.297-10.594 0.877-15.771l-0.058 0.636c0.153-0.777 0.24-1.67 0.24-2.584s-0.087-1.807-0.254-2.672l0.014 0.088c2.41-9.253 4.934-16.876 7.873-24.29l-0.491 1.403c7.749-18.656 18.478-34.594 31.757-48l-0.011 0.011 362.497-361.759c27.113-27.113 64.57-43.883 105.944-43.883 82.747 0 149.827 67.080 149.827 149.827 0 41.374-16.77 78.83-43.883 105.944v0l-105.575 103.36h890.371c83.587 0 151.348 67.761 151.348 151.348s-67.761 151.348-151.348 151.348v0z" />
<glyph unicode="&#xe907;" glyph-name="star-o" d="M967.826 605.355c-16.528 15.79-37.705 26.845-61.274 30.912l-0.702 0.1-203.678 30.964-92.94 185.978c-12.756 25.216-34.682 44.237-61.285 52.893l-0.741 0.208c-10.017 2.967-21.526 4.674-33.433 4.674-16.677 0-32.571-3.349-47.048-9.41l0.804 0.299c-21.611-12.029-38.498-30.315-48.475-52.392l-0.287-0.709-92.891-181.541-203.63-31.013c-28.627-4.472-53.259-18.944-70.708-39.665l-0.143-0.174c-13.933-21.052-22.23-46.894-22.23-74.673 0-1.76 0.033-3.512 0.099-5.256l-0.008 0.251c4.167-24.271 15.222-45.448 31.055-62.022l-0.043 0.045 146.286-146.286-35.401-203.63c-0.598-4.635-0.939-9.996-0.939-15.436 0-27.382 8.641-52.745 23.344-73.513l-0.267 0.397c20.009-23.735 49.758-38.71 83.005-38.71 18.202 0 35.356 4.488 50.415 12.419l-0.592-0.284 181.492 97.524 181.492-97.524c13.32-8.338 29.504-13.284 46.843-13.284 0.675 0 1.348 0.007 2.019 0.022l-0.1-0.002c33.806 0.047 63.999 15.473 83.966 39.654l0.148 0.185c15.813 16.525 25.548 38.98 25.548 63.708 0 8.844-1.245 17.397-3.57 25.494l0.16-0.651-35.401 203.63 146.286 146.286c25.254 18.233 41.499 47.586 41.499 80.733 0 27.214-10.95 51.871-28.684 69.804l0.009-0.009zM901.413 516.803l-154.965-150.528c-14.125-12.647-22.973-30.938-22.973-51.295 0-3.771 0.304-7.471 0.888-11.076l-0.053 0.395 35.401-212.699c0.076-0.59 0.119-1.272 0.119-1.965 0-4.39-1.737-8.374-4.561-11.303l0.005 0.005c0-8.875-8.875-8.875-17.701-4.437l-190.171 101.815c-9.001 4.747-19.539 7.92-30.714 8.855l-0.299 0.020c-13.002-0.93-25.042-4.105-36.052-9.141l0.65 0.267-190.171-101.815c-8.875-4.437-17.701-4.437-22.138 4.437-2.819 2.924-4.556 6.908-4.556 11.298 0 0.693 0.043 1.375 0.127 2.045l-0.008-0.080 35.401 212.504c0.724 3.642 1.138 7.829 1.138 12.113 0 19.977-9.005 37.85-23.177 49.782l-0.099 0.081-150.723 150.723-8.972 8.777c0 8.875 0 13.263 4.437 13.263 0 4.437 4.437 4.437 13.263 8.875l212.504 31.013c23.656 3.768 43.119 18.844 52.919 39.412l0.183 0.427 92.989 194.706c0 4.437 4.437 4.437 8.875 8.875h17.701c4.702-0.444 8.408-4.167 8.823-8.837l0.003-0.037 92.989-190.171c9.983-20.994 29.445-36.071 52.699-39.785l0.403-0.053 212.504-31.013c3.5-0.495 6.557-2.098 8.873-4.436l0.001-0.001c13.263-13.263 13.263-22.235 4.437-31.013z" />
<glyph unicode="&#xe908;" glyph-name="times" d="M633.71 448l365.129 365.129c14.672 15.409 23.699 36.31 23.699 59.32 0 47.546-38.543 86.089-86.089 86.089-23.009 0-43.911-9.027-59.355-23.733l0.035 0.033-365.129-365.129-365.056 365.129c-15.409 14.672-36.31 23.699-59.32 23.699-47.546 0-86.089-38.543-86.089-86.089 0-23.009 9.027-43.911 23.733-59.355l-0.033 0.035 365.056-365.129-365.056-365.056c-16.505-15.715-26.769-37.854-26.769-62.39 0-47.546 38.543-86.089 86.089-86.089 24.536 0 46.675 10.265 62.357 26.734l0.033 0.035 365.056 365.129 365.129-365.129c15.409-14.672 36.31-23.699 59.32-23.699 47.546 0 86.089 38.543 86.089 86.089 0 23.009-9.027 43.911-23.733 59.355l0.033-0.035z" />
<glyph unicode="&#xe90a;" glyph-name="tumblr-square" d="M853.285-64h-682.667c-94.506 1.152-170.674 78.032-170.674 172.703 0 0.57 0.003 1.139 0.008 1.708l-0.001-0.087v675.352c-0.005 0.482-0.008 1.051-0.008 1.621 0 94.67 76.168 171.55 170.565 172.702l0.109 0.001h682.667c94.506-1.152 170.674-78.032 170.674-172.703 0-0.57-0.003-1.139-0.008-1.708l0.001 0.087v-675.352c0.005-0.482 0.008-1.051 0.008-1.621 0-94.67-76.168-171.55-170.565-172.702l-0.109-0.001zM393.46 532.358v0c0.245 0.034 0.528 0.054 0.816 0.054 1.557 0 2.98-0.575 4.068-1.523l-0.007 0.006c0.826-1.11 1.322-2.508 1.322-4.021 0-0.301-0.020-0.598-0.058-0.889l0.004 0.034c0-8.777 0-17.701 0-26.331q0.439-42.959 0.78-85.918v-0.975c0.439-52.712 0.926-107.276 1.609-160.914 0.922-25.072 10.816-47.67 26.546-64.831l-0.068 0.075c27.716-33.163 68.743-54.403 114.757-55.439l0.175-0.003c8.094-0.341 17.506-0.683 26.819-0.683 1.695-0.051 3.69-0.080 5.691-0.080 20.915 0 41.086 3.184 60.054 9.095l-1.428-0.383c23.176 7.583 42.529 15.589 61.158 24.837l-2.644-1.187c3.755 1.853 6.632 3.657 6.632 9.167v95.281c0.013 0.3 0.021 0.652 0.021 1.006 0 1.141-0.078 2.264-0.23 3.364l0.014-0.127v0.39c-4.535-2.292-9.021-4.876-13.361-7.168-7.537-4.465-16.572-9.036-25.907-13.044l-1.595-0.609c-13.436-5.752-29.053-9.205-45.446-9.459l-0.098-0.001c-0.023 0-0.050 0-0.077 0-11.625 0-22.762 2.092-33.054 5.919l0.656-0.214c-19.62 5.797-34.206 22.361-37.028 42.687l-0.031 0.272c-1.615 12.093-2.537 26.073-2.537 40.269 0 0.277 0 0.555 0.001 0.832v-0.043c-0.293 48.762-0.39 97.768-0.439 145.408v55.394h133.754c5.803 0 7.802 2.097 7.802 8.387-0.098 30.476-0.098 61.391-0.098 91.819 0 6.632-2.097 8.631-8.875 8.631h-132.876v29.94c-0.439 44.861-0.683 90.21-0.975 134.095v1.073c0.066 0.391 0.103 0.841 0.103 1.3 0 1.695-0.512 3.271-1.39 4.581l0.019-0.030c-1.014 0.865-2.339 1.391-3.788 1.391-0.194 0-0.387-0.009-0.576-0.028l0.024 0.002h-72.85c-5.169 0-6.68-2.731-7.509-7.461l-0.488-1.707c-2.536-14.629-5.169-30.184-8.728-45.056-7.774-32.558-23.086-60.797-44.023-83.829l0.138 0.154c-16.206-17.405-35.79-31.426-57.736-41.058l-1.12-0.438c-4.224-1.133-7.282-4.926-7.282-9.434 0-0.525 0.042-1.041 0.122-1.544l-0.007 0.055v-90.795h0.78c0.287 0.006 0.625 0.009 0.964 0.009 2.343 0 4.647-0.163 6.903-0.478l-0.26 0.030h50.42z" />
<glyph unicode="&#xe90b;" glyph-name="twitter-square" d="M853.333-64h-682.667c-94.506 1.152-170.674 78.032-170.674 172.703 0 0.57 0.003 1.139 0.008 1.708l-0.001-0.087v675.352c-0.005 0.482-0.008 1.051-0.008 1.621 0 94.67 76.168 171.55 170.565 172.702l0.109 0.001h682.667c94.506-1.152 170.674-78.032 170.674-172.703 0-0.57-0.003-1.139-0.008-1.708l0.001 0.087v-675.352c0.005-0.482 0.008-1.051 0.008-1.621 0-94.67-76.168-171.55-170.565-172.702l-0.109-0.001zM200.509 263.192v0c51.345-33.931 114.353-54.132 182.078-54.132 92.957 0 177.026 38.056 237.477 99.438l0.041 0.042c60.332 61.855 97.547 146.502 97.547 239.841 0 1.395-0.008 2.789-0.025 4.18l0.002-0.211c0 4.632 0 9.46-0.439 15.604 23.369 17.211 43.001 37.899 58.545 61.518l0.555 0.897c-19.857-9.092-42.893-15.791-67.046-18.936l-1.221-0.13c24.558 15.174 42.934 38.342 51.651 65.811l0.232 0.846c-21.52-13.297-46.589-23.442-73.34-28.995l-1.509-0.262c-21.418 22.895-51.813 37.164-85.541 37.164-20.478 0-39.728-5.26-56.472-14.502l0.603 0.305c-37.657-21.231-62.67-60.968-62.67-106.546 0-9.349 1.052-18.451 3.045-27.196l-0.157 0.818c-98.854 5.533-185.536 53.332-242.946 125.468l-0.522 0.679c-10.080-17.388-16.029-38.257-16.029-60.515 0-41.419 20.599-78.028 52.112-100.139l0.391-0.26c-19.669 0.463-37.988 5.831-53.906 14.923l0.56-0.295v-1.365c-0.001-0.196-0.002-0.428-0.002-0.66 0-57.381 40.062-105.405 93.742-117.628l0.809-0.155c-8.998-2.541-19.332-4.002-30.007-4.002-0.319 0-0.638 0.001-0.957 0.004h0.049c-0.606-0.013-1.32-0.021-2.036-0.021-7.205 0-14.23 0.771-20.997 2.236l0.651-0.118c15.188-47.912 58.539-82.325 110.161-83.963l0.187-0.005c-39.718-31.943-90.727-51.314-146.257-51.444h-0.029c-0.419-0.003-0.914-0.005-1.41-0.005-9.473 0-18.802 0.622-27.946 1.827l1.074-0.116z" />
<glyph unicode="&#xe90c;" glyph-name="angle-down" d="M463.726 199.168l-419.352 404.724c-12.331 11.733-20.001 28.267-20.001 46.592s7.67 34.859 19.974 46.567l0.027 0.025c12.544 11.952 29.563 19.305 48.299 19.305s35.755-7.354 48.327-19.332l-0.028 0.027 371.029-358.156 371.029 357.912c12.544 11.952 29.563 19.305 48.299 19.305s35.755-7.354 48.327-19.332l-0.028 0.027c12.331-11.733 20.001-28.267 20.001-46.592s-7.67-34.859-19.974-46.567l-0.027-0.025-419.352-404.724c-12.536-11.948-29.547-19.3-48.274-19.3s-35.738 7.352-48.302 19.327l0.028-0.027z" />
<glyph unicode="&#xe90e;" glyph-name="angle-left" d="M263.851 496.274l419.352 419.352c12.359 12.365 29.436 20.013 48.299 20.013 37.714 0 68.287-30.573 68.287-68.287 0-18.851-7.638-35.918-19.989-48.275l-371.078-371.078 371.029-371.029c12.361-12.361 20.006-29.437 20.006-48.299 0-37.724-30.581-68.305-68.305-68.305-18.862 0-35.938 7.645-48.299 20.006l-419.352 419.352c-12.355 12.354-19.997 29.422-19.997 48.274s7.642 35.92 19.997 48.274v0z" />
<glyph unicode="&#xe910;" glyph-name="angle-right" d="M760.149 399.726l-419.352-419.352c-12.359-12.365-29.436-20.013-48.299-20.013-37.714 0-68.287 30.573-68.287 68.287 0 18.851 7.638 35.918 19.989 48.275l371.078 371.078-371.029 371.029c-12.361 12.361-20.006 29.437-20.006 48.299 0 37.724 30.581 68.305 68.305 68.305 18.862 0 35.938-7.645 48.299-20.006l419.352-419.352c12.355-12.354 19.997-29.422 19.997-48.274s-7.642-35.92-19.997-48.274v0z" />
<glyph unicode="&#xe912;" glyph-name="angle-up" d="M560.274 696.832l419.352-404.724c12.331-11.733 20.001-28.267 20.001-46.592s-7.67-34.859-19.974-46.567l-0.027-0.025c-12.544-11.952-29.563-19.305-48.299-19.305s-35.755 7.354-48.327 19.332l0.028-0.027-371.029 358.156-371.029-357.912c-12.544-11.952-29.563-19.305-48.299-19.305s-35.755 7.354-48.327 19.332l0.028-0.027c-12.331 11.733-20.001 28.267-20.001 46.592s7.67 34.859 19.974 46.567l0.027 0.025 419.352 404.724c12.536 11.948 29.547 19.3 48.274 19.3s35.738-7.352 48.302-19.327l-0.028 0.027z" />
<glyph unicode="&#xe917;" glyph-name="arrows-in" d="M625.323 367.738h284.331c0.137 0.002 0.299 0.003 0.461 0.003 11.13 0 21.182-4.615 28.347-12.035l0.011-0.011c7.439-7.245 12.054-17.359 12.054-28.55s-4.615-21.305-12.045-28.542l-0.009-0.008-91.624-91.429 138.874-138.923c3.948-3.647 6.411-8.85 6.411-14.629s-2.464-10.982-6.398-14.616l-0.013-0.012-72.363-72.216c-3.658-3.899-8.829-6.342-14.571-6.388h-0.008c-0.006 0-0.014 0-0.022 0-5.767 0-10.962 2.454-14.595 6.375l-0.012 0.013-138.874 138.923-91.38-91.429c-7.245-7.439-17.359-12.054-28.55-12.054s-21.305 4.615-28.542 12.045l-0.008 0.009c-7.429 7.114-12.046 17.113-12.046 28.19 0 0.118 0.001 0.236 0.002 0.353v-0.018 284.379c0.272 22.296 18.274 40.298 40.544 40.57h0.026zM398.629 528.262h-284.233c-0.065 0-0.142-0.001-0.219-0.001-11.129 0-21.18 4.614-28.345 12.033l-0.011 0.011c-7.431 7.168-12.045 17.213-12.045 28.335 0 0.084 0 0.168 0.001 0.252v-0.013c-0.001 0.1-0.001 0.217-0.001 0.335 0 11.077 4.617 21.076 12.032 28.177l0.014 0.013 91.38 91.38-138.874 138.923c-3.934 3.653-6.388 8.854-6.388 14.628 0 0 0 0 0 0v0c0 0 0 0 0 0 0 5.774 2.454 10.975 6.375 14.617l0.013 0.011 72.363 72.314c3.669 3.911 8.86 6.357 14.623 6.388h0.006c0.006 0 0.014 0 0.022 0 5.767 0 10.962-2.454 14.595-6.375l0.012-0.013 138.923-138.923 91.38 91.429c7.114 7.429 17.113 12.046 28.191 12.046 0.135 0 0.27-0.001 0.404-0.002h-0.021c0.1 0.001 0.217 0.001 0.335 0.001 11.077 0 21.076-4.617 28.177-12.032l0.013-0.014c7.429-7.114 12.046-17.113 12.046-28.19 0-0.118-0.001-0.236-0.002-0.353v0.018-284.331c0.001-0.114 0.002-0.249 0.002-0.384 0-11.077-4.617-21.076-12.032-28.177l-0.014-0.013c-7.118-7.459-17.137-12.096-28.238-12.096-0.17 0-0.339 0.001-0.508 0.003h0.026zM431.738 334.677v-284.331c0.002-0.137 0.003-0.299 0.003-0.461 0-11.13-4.615-21.182-12.035-28.347l-0.011-0.011c-7.245-7.439-17.359-12.054-28.55-12.054s-21.305 4.615-28.542 12.045l-0.008 0.009-91.429 91.624-138.923-138.874c-3.647-3.948-8.85-6.411-14.629-6.411s-10.982 2.464-14.616 6.398l-0.012 0.013-72.216 72.363c-3.899 3.658-6.342 8.829-6.388 14.571v0.008c0 0.006 0 0.014 0 0.022 0 5.767 2.454 10.962 6.375 14.595l0.013 0.012 138.923 138.874-91.429 91.38c-7.439 7.245-12.054 17.359-12.054 28.55s4.615 21.305 12.045 28.542l0.009 0.008c7.114 7.429 17.113 12.046 28.19 12.046 0.118 0 0.236-0.001 0.353-0.002h284.361c22.296-0.272 40.298-18.274 40.57-40.544v-0.026zM592.262 561.371v284.331c-0.002 0.137-0.003 0.299-0.003 0.461 0 11.13 4.615 21.182 12.035 28.347l0.011 0.011c7.245 7.439 17.359 12.054 28.55 12.054s21.305-4.615 28.542-12.045l0.008-0.009 91.429-91.624 138.923 138.874c3.647 3.948 8.85 6.411 14.629 6.411s10.982-2.464 14.616-6.398l0.012-0.013 72.216-72.363c3.899-3.658 6.342-8.829 6.388-14.571v-0.008c0-0.006 0-0.014 0-0.022 0-5.767-2.454-10.962-6.375-14.595l-0.013-0.012-138.923-138.874 91.429-91.38c7.439-7.245 12.054-17.359 12.054-28.55s-4.615-21.305-12.045-28.542l-0.009-0.008c-7.114-7.429-17.113-12.046-28.19-12.046-0.118 0-0.236 0.001-0.353 0.002h-284.361c-22.296 0.272-40.298 18.274-40.57 40.544v0.026z" />
<glyph unicode="&#xe918;" glyph-name="arrows-out" d="M431.933 274.554c0-0.006 0-0.014 0-0.022 0-5.767-2.454-10.962-6.375-14.595l-0.013-0.012-138.971-138.971 91.429-91.429c7.264-7.336 11.751-17.432 11.751-28.576 0-22.33-18.019-40.452-40.31-40.618h-284.444c-22.312 0.298-40.321 18.307-40.618 40.59v284.456c-0.001 0.088-0.001 0.193-0.001 0.298 0 22.298 18.076 40.375 40.375 40.375 11.284 0 21.487-4.629 28.813-12.092l91.435-91.435 138.971 138.971c3.647 3.948 8.85 6.411 14.629 6.411s10.982-2.464 14.616-6.398l0.012-0.013 72.411-72.411c3.905-3.642 6.339-8.818 6.339-14.562 0-0.023 0-0.047 0-0.070v0.004zM999.668 894.952v-284.428c0.001-0.088 0.001-0.193 0.001-0.298 0-22.298-18.076-40.375-40.375-40.375-11.284 0-21.487 4.629-28.813 12.092l-91.435 91.435-138.971-138.971c-3.647-3.948-8.85-6.411-14.629-6.411s-10.982 2.464-14.616 6.398l-0.012 0.013-72.411 72.411c-3.948 3.647-6.411 8.85-6.411 14.629s2.464 10.982 6.398 14.616l0.013 0.012 138.971 138.971-91.429 91.429c-7.264 7.336-11.751 17.432-11.751 28.576 0 22.33 18.019 40.452 40.31 40.618h284.444c22.312-0.298 40.321-18.307 40.618-40.59v-0.028zM338.603 528.067c-0.006 0-0.014 0-0.022 0-5.767 0-10.962 2.454-14.595 6.375l-0.012 0.013-138.679 138.923-91.672-91.331c-7.341-7.292-17.456-11.8-28.624-11.8-22.347 0-40.479 18.046-40.618 40.361v284.344c-0.001 0.114-0.002 0.249-0.002 0.384 0 11.077 4.617 21.076 12.032 28.177l0.014 0.013c7.115 7.429 17.114 12.047 28.191 12.047 0.152 0 0.304-0.001 0.455-0.003h284.454c0.114 0.001 0.249 0.002 0.384 0.002 11.077 0 21.076-4.617 28.177-12.032l0.013-0.014c7.4-7.111 11.998-17.091 11.998-28.144 0-0.151-0.001-0.302-0.003-0.453v0.023c0.001-0.114 0.002-0.249 0.002-0.384 0-11.077-4.617-21.076-12.032-28.177l-0.014-0.013-91.429-91.429 138.971-138.971c3.948-3.647 6.411-8.85 6.411-14.629s-2.464-10.982-6.398-14.616l-0.013-0.012-72.411-72.411c-3.639-3.876-8.796-6.291-14.517-6.291-0.039 0-0.079 0-0.118 0h0.006zM959-39.668h-284.428c-0.088-0.001-0.193-0.001-0.298-0.001-22.298 0-40.375 18.076-40.375 40.375 0 11.284 4.629 21.487 12.092 28.813l0.006 0.006 91.429 91.721-138.923 138.971c-3.948 3.647-6.411 8.85-6.411 14.629s2.464 10.982 6.398 14.616l0.013 0.012 72.46 72.070c3.647 3.948 8.85 6.411 14.629 6.411s10.982-2.464 14.616-6.398l0.012-0.013 138.971-138.971 91.234 91.429c7.114 7.429 17.113 12.046 28.191 12.046 0.135 0 0.27-0.001 0.404-0.002h-0.021c0.114 0.001 0.249 0.002 0.384 0.002 11.077 0 21.076-4.617 28.177-12.032l0.013-0.014c7.429-7.114 12.046-17.113 12.046-28.19 0-0.118-0.001-0.236-0.002-0.353v0.018-284.428c0.001-0.114 0.002-0.249 0.002-0.384 0-11.077-4.617-21.076-12.032-28.177l-0.014-0.013c-7.122-7.486-17.159-12.143-28.283-12.143-0.103 0-0.205 0-0.307 0.001h0.016z" />
<glyph unicode="&#xe921;" glyph-name="chevron-left-sm" d="M466.651 424.692l202.167 202.216c9.010 9.819 14.532 22.965 14.532 37.4s-5.522 27.582-14.569 37.441l0.037-0.041c-9.819 9.010-22.965 14.532-37.4 14.532s-27.582-5.522-37.441-14.569l0.041 0.037-238.202-241.030c-9.010-9.819-14.532-22.965-14.532-37.4s5.522-27.582 14.569-37.441l-0.037 0.041 238.202-238.202c9.19-9.636 21.896-15.849 36.052-16.574l0.129-0.005c0.359-0.010 0.781-0.016 1.204-0.016 14.018 0 26.528 6.458 34.717 16.561l0.065 0.083c9.010 9.819 14.532 22.965 14.532 37.4s-5.522 27.582-14.569 37.441l0.037-0.041z" />
<glyph unicode="&#xe923;" glyph-name="chevron-right-sm" d="M558.031 422.546l-202.167-202.216c-9.010-9.819-14.532-22.965-14.532-37.4s5.522-27.582 14.569-37.441l-0.037 0.041c9.819-9.010 22.965-14.532 37.4-14.532s27.582 5.522 37.441 14.569l-0.041-0.037 238.202 241.030c9.010 9.819 14.532 22.965 14.532 37.4s-5.522 27.582-14.569 37.441l0.037-0.041-238.202 238.202c-9.19 9.636-21.896 15.849-36.052 16.574l-0.129 0.005c-0.359 0.010-0.781 0.016-1.204 0.016-14.018 0-26.528-6.458-34.717-16.561l-0.065-0.083c-9.010-9.819-14.532-22.965-14.532-37.4s5.522-27.582 14.569-37.441l-0.037 0.041z" />
<glyph unicode="&#xe928;" glyph-name="comment-square" d="M853.333 911.238h-682.667c-94.134-0.304-170.363-76.532-170.667-170.637v-426.696c0.304-94.134 76.532-170.363 170.637-170.667h0.029v-128.049c0.311-23.326 19.293-42.115 42.663-42.115 11.646 0 22.202 4.666 29.901 12.23l157.934 157.934h452.169c94.134 0.304 170.363 76.532 170.667 170.637v426.696c-0.304 94.134-76.532 170.363-170.637 170.667h-0.029z" />
<glyph unicode="&#xe929;" glyph-name="compress" d="M431.982 342.089v-284.477c0.002-0.137 0.003-0.299 0.003-0.461 0-11.13-4.615-21.182-12.035-28.347l-0.011-0.011c-7.253-7.442-17.375-12.058-28.574-12.058s-21.321 4.616-28.566 12.049l-0.008 0.008-91.429 91.672-138.971-138.923c-3.653-3.934-8.854-6.388-14.629-6.388s-10.975 2.454-14.617 6.376l-0.012 0.013-72.363 72.363c-3.948 3.647-6.411 8.85-6.411 14.629s2.464 10.982 6.398 14.616l0.013 0.012 138.971 138.971-91.38 91.331c-7.442 7.253-12.058 17.375-12.058 28.574s4.616 21.321 12.049 28.566l0.008 0.008c7.114 7.429 17.113 12.046 28.19 12.046 0.118 0 0.236-0.001 0.353-0.002h284.41c22.333-0.271 40.369-18.29 40.667-40.59v-0.028zM592.018 568.832v284.331c0 0.065-0.001 0.142-0.001 0.219 0 11.129 4.614 21.18 12.033 28.345l0.011 0.011c7.176 7.431 17.227 12.045 28.356 12.045 0.077 0 0.154 0 0.231-0.001h-0.012c0.1 0.001 0.217 0.001 0.335 0.001 11.077 0 21.076-4.617 28.177-12.032l0.013-0.014 91.429-91.429 138.971 138.923c3.638 3.933 8.825 6.388 14.586 6.388 0.015 0 0.030 0 0.045 0h-0.002c0 0 0 0 0 0 5.774 0 10.975-2.454 14.617-6.375l0.011-0.013 72.363-72.363c3.911-3.669 6.357-8.86 6.388-14.623v-0.006c-0.019-5.771-2.468-10.966-6.376-14.618l-0.012-0.011-138.971-138.971 91.429-91.429c7.429-7.114 12.046-17.113 12.046-28.191 0-0.135-0.001-0.27-0.002-0.404v0.021c0.001-0.1 0.001-0.217 0.001-0.335 0-11.077-4.617-21.076-12.032-28.177l-0.014-0.013c-7.114-7.429-17.113-12.046-28.19-12.046-0.118 0-0.236 0.001-0.353 0.002h-284.41c-0.114-0.001-0.249-0.002-0.384-0.002-11.077 0-21.076 4.617-28.177 12.032l-0.013 0.014c-7.459 7.118-12.096 17.137-12.096 28.238 0 0.17 0.001 0.339 0.003 0.508v-0.026z" />
<glyph unicode="&#xe92c;" glyph-name="download" d="M989.867 277.333c-9.835 9.080-23.031 14.648-37.527 14.648-0.521 0-1.041-0.007-1.559-0.022l0.076 0.002c-29.513-0.273-53.365-24.125-53.638-53.612v-185.321h-789.943v185.295c-0.273 29.513-24.125 53.365-53.612 53.638h-0.026c-29.513-0.273-53.365-24.125-53.638-53.612v-238.959c-0.013-0.447-0.020-0.973-0.020-1.501 0-14.49 5.569-27.68 14.683-37.546l-0.034 0.037c9.828-9.080 23.018-14.649 37.509-14.649 0.528 0 1.054 0.007 1.578 0.022l-0.077-0.002h902.095c29.513 0.273 53.365 24.125 53.638 53.612v238.959c-2.563 15.289-9.527 28.632-19.528 39.034l0.023-0.024zM477.867 218.819l9.752-9.752c5.542-2.141 11.954-3.382 18.657-3.382 13.424 0 25.686 4.977 35.042 13.186l-0.060-0.052 238.933 253.562c8.816 9.26 14.239 21.819 14.239 35.646 0 28.573-23.163 51.736-51.736 51.736-13.826 0-26.386-5.424-35.667-14.259l0.021 0.020-146.286-156.038v507.124c-0.273 29.513-24.125 53.365-53.612 53.638h-0.026c-0.954 0.059-2.070 0.092-3.193 0.092-29.998 0-54.422-23.867-55.319-53.648l-0.002-0.083v-502.248l-141.41 156.038c-10.891 9.006-23.985 15.765-38.334 19.361l-0.676 0.143c-13.309-0.611-25.236-6.073-34.151-14.645l0.017 0.017c-11.7-10.041-19.066-24.846-19.066-41.371 0-14.137 5.39-27.014 14.228-36.69l-0.038 0.042z" />
<glyph unicode="&#xe92d;" glyph-name="expand" d="M24.381 15.482v284.477c-0.002 0.137-0.003 0.299-0.003 0.461 0 11.13 4.615 21.182 12.035 28.347l0.011 0.011c7.253 7.442 17.375 12.058 28.574 12.058s21.321-4.616 28.566-12.049l0.008-0.008 91.429-91.672 138.971 138.923c3.653 3.934 8.854 6.388 14.629 6.388s10.975-2.454 14.617-6.376l0.012-0.013 72.363-72.363c3.948-3.647 6.411-8.85 6.411-14.629s-2.464-10.982-6.398-14.616l-0.013-0.012-138.971-138.971 91.38-91.331c7.442-7.253 12.058-17.375 12.058-28.574s-4.616-21.321-12.049-28.566l-0.008-0.008c-7.114-7.429-17.113-12.046-28.19-12.046-0.118 0-0.236 0.001-0.353 0.002h-284.41c-22.333 0.271-40.369 18.29-40.667 40.59v0.028zM999.717 894.854v-284.331c0-0.065 0.001-0.142 0.001-0.219 0-11.129-4.614-21.18-12.033-28.345l-0.011-0.011c-7.176-7.431-17.227-12.045-28.356-12.045-0.077 0-0.154 0-0.231 0.001h0.012c-0.1-0.001-0.217-0.001-0.335-0.001-11.077 0-21.076 4.617-28.177 12.032l-0.013 0.014-91.429 91.429-138.971-138.923c-3.638-3.933-8.825-6.388-14.586-6.388-0.015 0-0.030 0-0.045 0h0.002c0 0 0 0 0 0-5.774 0-10.975 2.454-14.617 6.375l-0.011 0.013-72.363 72.363c-3.911 3.669-6.357 8.86-6.388 14.623v0.006c0.019 5.771 2.468 10.966 6.376 14.618l0.012 0.011 138.971 138.971-91.429 91.429c-7.429 7.114-12.046 17.113-12.046 28.191 0 0.135 0.001 0.27 0.002 0.404v-0.021c-0.001 0.1-0.001 0.217-0.001 0.335 0 11.077 4.617 21.076 12.032 28.177l0.014 0.013c7.114 7.429 17.113 12.046 28.19 12.046 0.118 0 0.236-0.001 0.353-0.002h284.41c0.114 0.001 0.249 0.002 0.384 0.002 11.077 0 21.076-4.617 28.177-12.032l0.013-0.014c7.459-7.118 12.096-17.137 12.096-28.238 0-0.17-0.001-0.339-0.003-0.508v0.026z" />
<glyph unicode="&#xe92e;" glyph-name="facebook-square" d="M853.333-64h-218.405v325.339h146.578v149.699h-146.578v59.928c0 22.869 14.921 39.936 28.379 39.936h118.248v149.65h-118.004c-93.143-8.972-165.383-86.838-165.383-181.577 0-3.521 0.1-7.018 0.297-10.49l-0.022 0.481v-57.88h-107.618v-149.699h107.276v-325.388h-327.436c-94.506 1.152-170.675 78.032-170.675 172.703 0 0.587 0.003 1.174 0.009 1.759l-0.001-0.089v675.352c-0.005 0.482-0.008 1.051-0.008 1.621 0 94.66 76.174 171.53 170.568 172.653l0.106 0.001h682.667c94.506-1.152 170.674-78.032 170.674-172.703 0-0.553-0.003-1.105-0.008-1.657l0.001 0.084v-675.352c0.005-0.482 0.008-1.052 0.008-1.622 0-94.68-76.162-171.571-170.563-172.75l-0.111-0.001z" />
<glyph unicode="&#xe933;" glyph-name="heart-o" d="M508.538 4.754c-1.051-0.062-2.281-0.097-3.519-0.097-18.072 0-34.391 7.511-46.003 19.581l-0.020 0.021-361.813 359.717c-20.49 18.818-38.472 39.837-53.733 62.819l-0.783 1.254c-26.677 42.911-42.492 94.985-42.492 150.754 0 105.182 56.254 197.225 140.317 247.684l1.307 0.728c43.607 26.818 96.43 42.705 152.963 42.705 86.613 0 164.516-37.288 218.533-96.688l0.215-0.24c54.237 59.523 131.622 97.145 217.813 98.545l0.25 0.003c0.131 0 0.287 0 0.442 0 160.843 0 291.327-129.988 292.129-290.643v-0.076c-0.117-87.94-38.259-166.947-98.862-221.481l-0.271-0.24-361.813-359.717c-15.729-9.027-34.544-14.429-54.604-14.628h-0.058zM290.475 822.735c-0.263 0.001-0.575 0.002-0.886 0.002-41.558 0-80.555-10.961-114.26-30.149l1.141 0.598c-63.376-39.716-104.896-109.178-104.896-188.338 0-41.379 11.345-80.108 31.095-113.247l-0.561 1.016c10.985-20.045 26.032-36.588 44.138-48.989l0.479-0.31 361.813-359.717 361.813 359.717c47.682 40.704 78.067 100.459 79.284 167.337l0.003 0.208c-1.478 119.578-98.381 216.036-217.99 216.795h-0.073c-78.751-0.346-147.907-41.107-187.835-102.599l-0.532-0.874-29.745-49.298-29.745 49.298c-45.612 57.889-114.672 95.543-192.617 98.533l-0.48 0.015z" />
<glyph unicode="&#xe934;" glyph-name="info-circle" d="M512 960c-282.77 0-512-229.23-512-512s229.23-512 512-512c282.77 0 512 229.23 512 512v0c0 282.77-229.23 512-512 512v0zM580.267 209.067c0-37.703-30.564-68.267-68.267-68.267s-68.267 30.564-68.267 68.267v0 238.933c0 37.703 30.564 68.267 68.267 68.267s68.267-30.564 68.267-68.267v0zM512 578.048c-41.284 0-74.752 33.468-74.752 74.752s33.468 74.752 74.752 74.752c41.284 0 74.752-33.468 74.752-74.752v0c0-41.284-33.468-74.752-74.752-74.752v0z" />
<glyph unicode="&#xe936;" glyph-name="pause" d="M347.038 960h-203.191c-33.865-0.917-60.968-28.588-60.968-62.589 0-0.488 0.006-0.974 0.017-1.459l-0.001 0.072v-896.049c-0.010-0.413-0.015-0.899-0.015-1.387 0-34.001 27.103-61.672 60.883-62.587l0.085-0.002h203.191c33.865 0.917 60.968 28.588 60.968 62.589 0 0.488-0.006 0.974-0.017 1.459l0.001-0.072v896c0.010 0.427 0.016 0.931 0.016 1.436 0 34.002-27.104 61.673-60.884 62.587l-0.085 0.002zM875.276 960h-203.191c-33.865-0.917-60.968-28.588-60.968-62.589 0-0.488 0.006-0.974 0.017-1.459l-0.001 0.072v-896.049c-0.010-0.413-0.015-0.899-0.015-1.387 0-34.001 27.103-61.672 60.883-62.587l0.085-0.002h203.191c33.865 0.917 60.968 28.588 60.968 62.589 0 0.488-0.006 0.974-0.017 1.459l0.001-0.072v896c0.010 0.427 0.016 0.931 0.016 1.436 0 34.002-27.104 61.673-60.884 62.587l-0.085 0.002z" />
<glyph unicode="&#xe938;" glyph-name="instagram" d="M1024 658.651c-0.862 44.894-9.552 87.508-24.755 126.882l0.862-2.539c-13.691 35.688-33.923 66.105-59.45 91.146l-0.040 0.039c-25.589 25.382-56.483 45.458-90.867 58.413l-1.78 0.588c-36.867 14.068-79.488 22.58-123.989 23.401l-0.354 0.005c-55.101 3.413-72.168 3.413-211.627 3.413s-156.038 0-210.651-2.926c-44.894-0.862-87.508-9.552-126.882-24.755l2.539 0.862c-35.605-13.713-65.992-33.76-91.181-58.998l-0.004-0.004c-25.025-25.165-45.032-55.35-58.374-88.908l-0.628-1.789c-14.068-36.867-22.58-79.488-23.401-123.989l-0.005-0.354c-3.413-55.101-3.413-72.168-3.413-211.139s0-156.526 2.926-211.139c0.862-44.894 9.552-87.508 24.755-126.882l-0.862 2.539c27.139-68.982 80.717-122.56 147.928-149.083l1.771-0.616c36.833-14.238 79.431-22.918 123.928-23.886l0.414-0.007c54.613 0 72.168-2.926 211.139-2.926s156.526 0 211.139 2.926c44.912 0.976 87.51 9.655 126.925 24.763l-2.582-0.87c68.949 27.192 122.507 80.75 149.081 147.926l0.618 1.773c14.294 36.834 22.98 79.44 23.887 123.956l0.006 0.387c0 54.613 2.926 71.68 2.926 211.139s0 156.038 0 210.651zM931.84 240.762c-0.376-34.274-6.963-66.9-18.685-96.958l0.643 1.872c-17.617-44.979-52.545-79.907-96.372-97.125l-1.152-0.399c-28.186-11.019-60.803-17.599-94.901-18.040l-0.185-0.002c-54.126 0-70.217-2.926-206.75-2.926s-153.112 0-206.75 2.926c-34.274 0.376-66.9 6.963-96.958 18.685l1.872-0.643c-23.201 8.346-42.953 21.349-58.955 37.985l-0.047 0.049c-16.685 16.049-29.689 35.801-37.699 57.942l-0.335 1.059c-11.277 28.181-17.886 60.84-18.042 95.022v0.063c-2.438 54.126-3.413 70.705-3.413 207.238s0 153.112 3.413 206.75c0.010 34.187 6.451 66.868 18.178 96.901l-0.624-1.815c8.466 23.158 21.449 42.887 37.997 58.966l0.037 0.036c16.329 16.246 35.985 29.164 57.854 37.643l1.148 0.391c27.876 10.177 60.058 16.071 93.614 16.091h0.009c54.126 2.438 70.217 2.926 206.75 2.926s153.112 0 207.238-2.926c34.061-0.324 66.528-6.734 96.5-18.193l-1.902 0.639c23.063-8.737 42.742-21.676 58.994-38.026l0.008-0.008c16.585-16.115 29.568-35.844 37.687-57.923l0.347-1.079c11.019-28.186 17.599-60.803 18.040-94.901l0.002-0.185c0-54.126 2.926-70.217 2.926-206.75s-0.975-151.162-2.926-205.288zM512 710.827c-145.424 0-263.314-117.89-263.314-263.314s117.89-263.314 263.314-263.314c145.424 0 263.314 117.89 263.314 263.314 0 0.171 0 0.343 0 0.514v-0.027c-0.278 145.215-118.061 262.827-263.314 262.827 0 0 0 0 0 0v0zM512 277.333c-94.257 0-170.667 76.41-170.667 170.667s76.41 170.667 170.667 170.667c94.257 0 170.667-76.41 170.667-170.667v0c0-94.257-76.41-170.667-170.667-170.667v0zM846.994 721.067c0-33.932-27.508-61.44-61.44-61.44s-61.44 27.508-61.44 61.44c0 33.932 27.508 61.44 61.44 61.44v0c0.145 0.001 0.317 0.002 0.49 0.002 33.663 0 60.952-27.289 60.952-60.952 0-0.172-0.001-0.344-0.002-0.516v0.026z" />
<glyph unicode="&#xe939;" glyph-name="linkedin" d="M560.274 500.663v0 0zM853.333 960h-682.667c-94.494-1.098-170.673-77.956-170.673-172.606 0-0.518 0.002-1.036 0.007-1.553l-0.001 0.079v-675.352c-0.007-0.583-0.011-1.272-0.011-1.961 0-94.652 76.182-171.511 170.574-172.605l0.103-0.001h682.667c94.496 1.096 170.678 77.954 170.678 172.606 0 0.69-0.004 1.378-0.012 2.066l0.001-0.105v675.352c0.004 0.438 0.006 0.956 0.006 1.474 0 94.65-76.179 171.508-170.569 172.605l-0.104 0.001zM320.366 105.204h-155.063v464.701h155.063zM243.81 630.857v0c-44.166 0-79.97 35.804-79.97 79.97s35.804 79.97 79.97 79.97v0c2.654 0.31 5.729 0.488 8.845 0.488 44.435 0 80.457-36.022 80.457-80.457s-36.022-80.457-80.457-80.457c-3.116 0-6.191 0.177-9.214 0.522l0.37-0.034zM877.714 105.204h-154.575v247.71c0 61.928-22.43 104.35-78.019 104.35-36.404-0.15-67.385-23.202-79.292-55.488l-0.19-0.588c-3.488-9.621-5.505-20.726-5.505-32.302 0-1.845 0.051-3.678 0.152-5.497l-0.011 0.253v-258.438h-154.575s0 419.352 0 462.75h154.575v-65.829c27.186 46.18 76.648 76.682 133.234 76.682 2.189 0 4.368-0.046 6.535-0.136l-0.31 0.010c101.912 0 178.469-66.316 178.469-208.213z" />
<glyph unicode="&#xe93a;" glyph-name="spinner" horiz-adv-x="1026" d="M1026.444 633.493c0-70.186-56.897-127.084-127.084-127.084s-127.084 56.897-127.084 127.084c0 70.186 56.897 127.084 127.084 127.084s127.084-56.897 127.084-127.084zM200.89 211.674c0-42.112-34.138-76.25-76.25-76.25s-76.25 34.138-76.25 76.25c0 42.112 34.138 76.25 76.25 76.25s76.25-34.138 76.25-76.25zM751.259 845.625c0-63.168-51.208-114.375-114.375-114.375s-114.375 51.208-114.375 114.375c0 63.168 51.208 114.375 114.375 114.375s114.375-51.208 114.375-114.375zM450.658-0.458c0-35.093-28.449-63.542-63.542-63.542s-63.542 28.449-63.542 63.542c0 35.093 28.449 63.542 63.542 63.542s63.542-28.449 63.542-63.542zM402.757 810.432c0-56.149-45.518-101.667-101.667-101.667s-101.667 45.518-101.667 101.667c0 56.149 45.518 101.667 101.667 101.667s101.667-45.518 101.667-101.667zM773.743 35.223c0-28.075-22.759-50.833-50.833-50.833s-50.833 22.759-50.833 50.833c0 28.075 22.759 50.833 50.833 50.833s50.833-22.759 50.833-50.833zM113.886 633.004c-7.344 2.186-15.783 3.445-24.515 3.445-49.13 0-88.958-39.828-88.958-88.958s39.828-88.958 88.958-88.958c39.339 0 72.715 25.535 84.455 60.935l0.181 0.628c2.741 8.182 4.323 17.604 4.323 27.395 0 40.398-26.928 74.507-63.814 85.355l-0.629 0.159zM973.167 297.699c0-21.056-17.069-38.125-38.125-38.125s-38.125 17.069-38.125 38.125c0 21.056 17.069 38.125 38.125 38.125s38.125-17.069 38.125-38.125z" />
<glyph unicode="&#xe93b;" glyph-name="camera-retro" d="M1002.545 865.402c-12.94 13.245-30.981 21.459-50.941 21.459-0.263 0-0.525-0.001-0.787-0.004h-877.674c-0.222 0.002-0.484 0.004-0.747 0.004-19.959 0-38-8.214-50.927-21.445l-0.013-0.014c-13.245-12.94-21.459-30.981-21.459-50.941 0-0.263 0.001-0.525 0.004-0.787v0.040-731.429c-0.002-0.222-0.004-0.484-0.004-0.747 0-19.959 8.214-38 21.445-50.927l0.014-0.013c12.94-13.245 30.981-21.459 50.941-21.459 0.263 0 0.525 0.001 0.787 0.004h877.674c40.396 0 73.143 32.747 73.143 73.143v0 731.429c0.002 0.222 0.004 0.484 0.004 0.747 0 19.959-8.214 38-21.445 50.927l-0.014 0.013zM146.286 850.286h219.429v-73.143h-219.429zM950.857 82.286h-877.714v73.143h877.714v-73.143zM292.571 410.453c-0.016 0.969-0.025 2.113-0.025 3.258 0 59.562 24.663 113.363 64.333 151.749l0.058 0.056c38.442 39.728 92.243 64.391 151.805 64.391 1.146 0 2.289-0.009 3.43-0.027l-0.172 0.002c0.969 0.016 2.113 0.025 3.258 0.025 59.562 0 113.363-24.663 151.749-64.333l0.056-0.058c39.728-38.442 64.391-92.243 64.391-151.805 0-1.146-0.009-2.289-0.027-3.43l0.002 0.172c0-0.145 0.001-0.316 0.001-0.488 0-120.918-98.023-218.941-218.941-218.941-0.172 0-0.343 0-0.515 0.001h0.026c-0.145 0-0.316-0.001-0.488-0.001-120.918 0-218.941 98.023-218.941 218.941 0 0.172 0 0.343 0.001 0.515v-0.026zM950.857 734.72v-67.291h-877.714v73.143h368.152l36.571 73.143h472.99v-78.994zM615.375 307.078c26.482 25.424 42.937 61.12 42.937 100.659 0 0.955-0.010 1.908-0.029 2.858l0.002-0.142c0 80.791-65.494 146.286-146.286 146.286v0c-80.791 0-146.286-65.494-146.286-146.286v0c0-80.791 65.494-146.286 146.286-146.286v0c0.808-0.017 1.761-0.026 2.716-0.026 39.539 0 75.235 16.455 100.614 42.889l0.045 0.047zM472.99 448c-9.935-9.668-16.099-23.168-16.099-38.107 0-0.317 0.003-0.634 0.008-0.95l-0.001 0.047c-0.193-10.084-8.414-18.185-18.526-18.185-4.911 0-9.375 1.91-12.691 5.028l0.010-0.009c-3.314 3.273-5.367 7.816-5.367 12.839 0 0.115 0.001 0.229 0.003 0.343v-0.017c-0.003 0.291-0.005 0.636-0.005 0.98 0 50.827 40.929 92.094 91.626 92.642h0.052c0.297 0.018 0.645 0.028 0.995 0.028 4.728 0 9.020-1.869 12.176-4.91l-0.005 0.005c3.391-3.359 5.491-8.018 5.491-13.166 0-10.234-8.296-18.53-18.53-18.53-0.045 0-0.090 0-0.134 0h0.007c-15.54-0.272-29.415-7.171-38.96-17.984l-0.050-0.057z" />
<glyph unicode="&#xe93c;" glyph-name="share" d="M1013.272 607.939l-292.571 292.571c-6.617 6.609-15.753 10.695-25.844 10.695s-19.227-4.087-25.844-10.696v0c-6.623-6.47-10.73-15.491-10.73-25.47 0-0.131 0.001-0.262 0.002-0.393v0.020-146.286h-127.756c-272.091 0-438.857-76.556-500.297-230.156-19.277-52.494-30.428-113.11-30.428-176.331 0-5.039 0.071-10.061 0.212-15.065l-0.016 0.737c7.824-95.17 33.801-182.655 74.466-261.316l-1.811 3.853c0-2.926 2.926-7.314 5.851-13.653l7.802-17.067c2.377-4.909 4.811-9.063 7.528-13.006l-0.214 0.328c3.478-5.476 9.298-9.195 16.016-9.747l0.075-0.005c0.231-0.011 0.502-0.018 0.774-0.018 5.131 0 9.734 2.265 12.862 5.849l0.017 0.020c2.75 3.681 4.403 8.32 4.403 13.346 0 0.279-0.005 0.558-0.015 0.835l0.001-0.040c0.187 2.263 0.293 4.898 0.293 7.558s-0.107 5.295-0.315 7.902l0.022-0.343c-0.126 2.040-0.198 4.425-0.198 6.827s0.072 4.786 0.213 7.152l-0.016-0.326q-2.926 39.010-2.926 70.217c-0.010 1.198-0.016 2.614-0.016 4.031 0 35.153 3.556 69.476 10.329 102.628l-0.56-3.284c6.451 29.862 16.034 56.251 28.649 80.827l-0.855-1.833c11.954 22.514 27.291 41.586 45.58 57.324l0.256 0.215c17.296 15.566 37.039 28.918 58.476 39.327l1.501 0.658c20.949 10.018 45.387 18.419 70.89 23.97l2.253 0.411c24.629 5.178 54.813 9.496 85.509 12.009l2.751 0.181c29.257 2.438 62.903 3.413 100.45 3.413h128.244v-146.286c0.018-20.184 16.385-36.539 36.571-36.539 10.091 0 19.227 4.087 25.844 10.696v0l292.571 292.571c6.609 6.617 10.695 15.753 10.695 25.844s-4.087 19.227-10.696 25.844v0z" />
<glyph unicode="&#xe93d;" glyph-name="step-backward" horiz-adv-x="875" d="M48.762-64h97.524c26.93 0 48.762 21.831 48.762 48.762v0 926.476c0 26.93-21.831 48.762-48.762 48.762v0h-97.524c-26.93 0-48.762-21.831-48.762-48.762v0-926.476c0-26.93 21.831-48.762 48.762-48.762v0zM325.242 482.621c-8.909-8.838-14.424-21.085-14.424-34.621s5.515-25.783 14.42-34.618l0.003-0.003 464.213-462.75c8.938-12.585 23.46-20.698 39.876-20.698 26.93 0 48.762 21.831 48.762 48.762 0 2.139-0.138 4.247-0.405 6.313l0.026-0.244v926.476c0.241 1.822 0.379 3.93 0.379 6.069 0 26.93-21.831 48.762-48.762 48.762-16.416 0-30.938-8.112-39.775-20.547l-0.102-0.15z" />
<glyph unicode="&#xe93e;" glyph-name="step-forward" horiz-adv-x="875" d="M826.027 960h-97.524c-26.93 0-48.762-21.831-48.762-48.762v0-926.476c0-26.93 21.831-48.762 48.762-48.762v0h97.524c26.93 0 48.762 21.831 48.762 48.762v0 926.476c0 26.93-21.831 48.762-48.762 48.762v0zM550.034 413.379c8.909 8.838 14.424 21.085 14.424 34.621s-5.515 25.783-14.42 34.618l-0.003 0.003-464.213 462.75c-8.999 10.521-22.288 17.147-37.124 17.147-26.93 0-48.762-21.831-48.762-48.762 0-0.886 0.024-1.766 0.070-2.64l-0.005 0.122v-926.476c-0.083-1.069-0.131-2.314-0.131-3.571 0-26.93 21.831-48.762 48.762-48.762 14.872 0 28.189 6.658 37.133 17.156l0.057 0.068z" />
<glyph unicode="&#xe93f;" glyph-name="user" horiz-adv-x="971" d="M487.619 960c-140.379-6.020-251.905-121.286-251.905-262.6 0-4.368 0.107-8.71 0.317-13.026l-0.024 0.608c-0.187-3.701-0.293-8.037-0.293-12.398 0-141.216 111.579-256.372 251.384-262.114l0.52-0.017c139.459 6.793 249.958 121.515 249.958 262.047 0 4.391-0.108 8.756-0.321 13.093l0.024-0.611c0.19 3.734 0.298 8.107 0.298 12.506 0 140.629-110.448 255.462-249.331 262.486l-0.627 0.025zM709.973 410.453c-62.38-43.101-138.983-69.864-221.665-72.637l-0.689-0.018c-84.047 2.48-161.368 29.286-225.722 73.577l1.417-0.922c-145.31 0-263.314-35.596-263.314-181.882v-195.048c133.154-61.929 289.047-98.058 453.379-98.058 12.041 0 24.036 0.194 35.983 0.579l-1.743-0.044c10.292-0.347 22.391-0.544 34.535-0.544 164.232 0 320.025 36.133 459.862 100.884l-6.778-2.816v195.048c-3.901 146.286-121.905 181.882-265.265 181.882z" />
<glyph unicode="&#xe940;" glyph-name="clone" d="M731.429 960h-585.143c-0.006 0-0.013 0-0.020 0-80.791 0-146.286-65.494-146.286-146.286 0-0.857 0.007-1.713 0.022-2.566l-0.002 0.128v-577.341c-0.063-1.6-0.098-3.478-0.098-5.364 0-80.791 65.494-146.286 146.286-146.286 0.035 0 0.069 0 0.104 0h585.137c0.009 0 0.019 0 0.029 0 80.791 0 146.286 65.494 146.286 146.286 0 1.029-0.011 2.055-0.032 3.079l0.002-0.153v579.779c0.013 0.725 0.020 1.581 0.020 2.438 0 80.791-65.494 146.286-146.286 146.286-0.007 0-0.014 0-0.021 0h0.001zM934.766 799.086c1.861-8.869 2.926-19.061 2.926-29.501 0-0.086 0-0.171 0-0.257v0.013-576.853c0.004-0.438 0.006-0.956 0.006-1.474 0-92.496-74.433-167.607-166.668-168.704l-0.104-0.001h-585.143c-9.646 0.248-18.882 1.301-27.85 3.098l1.031-0.172c22.675-52.558 73.856-88.772 133.549-89.234h585.202c0.009 0 0.019 0 0.029 0 80.791 0 146.286 65.494 146.286 146.286 0 1.029-0.011 2.055-0.032 3.079l0.002-0.153v576.853c0.012 0.687 0.018 1.498 0.018 2.311 0 60.192-36.354 111.894-88.304 134.345l-0.948 0.365z" />
</font>
</defs>
</svg>
